img image001 image001 image001 image001 image001 image001 image001 image001 image001 image001 image001 image001 image001 image001 image001

Planets Sun Sun Sun

COVID-19 - Последняя информация о коронавирусе на сайте Минздрава


Статистика раздачи
Автор: Снежана | Размер: 8.59 ГБ | Добавлен: 23 июн 2020
Раздают: 10    Качают: 3
Скачать торрент
Скачать торрент
Описание торрента

СообщениеДобавлено: 23 июн 2020 

Информация о фильме
Название: Слушатели
Оригинальное название: Listeners
Год выхода: 2020
Жанр: драма, научная_фантастика, романтика
Режиссер: Хироаки Андо
В ролях: Риэ Такахаси, Коити Ямадэра, Кана Ханадзава, Юити Накамура, Дзюнъити Сувабэ, Ацуко Танака, Риэ Кугимия, Дзюн Фукуяма, Аюму Мурасэ, Хотю Оцука

О фильме:
Перед вами мир, где человечеству угрожают таинственные существа — Безухие. Противостоять чудовищам могут лишь особые люди со встроенными в их тела аудиоразъёмами, с помощью которых они управляют боевыми роботами «эквипментами». Десять лет назад парнишка Эково, живущий в городе-свалке Ливерчестер, стал свидетелем Феста — страшной битвы, что развернулась между Безухим и легендарным героем Джими. С тех пор Эково и стал восхищаться такими, как Джими. Но вот однажды, привычно копаясь на свалке в поисках чего-нибудь полезного, он обнаруживает Мю — потерявшую память девушку. В её пояснице зияет гнездо для подключения. Чтобы выяснить, кто такая Мю, Эково и его новая подруга отправляются в путешествие на поиски таинственного героя Джими… © Wakanim


Страна: Япония
Продолжительность: ~ 00:24:00 (серия)
Перевод: Профессиональный (многоголосый, закадровый) | StudioBand [Wakanim]

Файл
Формат: MP4
Кодек: MPEG-4 AVC
Качество: WEBRip 1080p
Видео: 1920x1080, ~ 4 100 kb/s, 23.976 FPS. 8 bits
Аудио (русский): AAC LC, ~ 128 kb/s, 2 channels, 48.0 kHz
Субтитры: русские (вшитые на надписи)





1-я серия

General
Complete name : [Fortuna.TV] Listeners - 01 (WEBRip 1920x1080 x264 AAC Rus).mp4
Format : MPEG-4
Format profile : Base Media
Codec ID : isom (isom/iso2/avc1/mp41)
File size : 735 MiB
Duration : 24 min 45 s
Overall bit rate : 4 151 kb/s
Writing application : Lavf57.71.100

Video
ID : 1
Format : AVC
Format/Info : Advanced Video Codec
Format profile : High@L4
Format settings : CABAC / 4 Ref Frames
Format settings, CABAC : Yes
Format settings, Reference frames : 4 frames
Codec ID : avc1
Codec ID/Info : Advanced Video Coding
Duration : 24 min 45 s
Bit rate : 4 100 kb/s
Width : 1 920 pixels
Height : 1 080 pixels
Display aspect ratio : 16:9
Frame rate mode : Variable
Frame rate : 23.976 (23976/1000) FPS
Minimum frame rate : 21.878 FPS
Maximum frame rate : 27.335 FPS
Color space : YUV
Chroma subsampling : 4:2:0
Bit depth : 8 bits
Scan type : Progressive
Bits/(Pixel*Frame) : 0.082
Stream size : 711 MiB (97%)
Writing library : x264 core 155
Encoding settings : cabac=1 / ref=3 / deblock=1:0:0 / analyse=0x3:0x113 / me=hex / subme=6 / psy=1 / psy_rd=1.00:0.00 / mixed_ref=0 / me_range=16 / chroma_me=1 / trellis=1 / 8x8dct=1 / cqm=0 / deadzone=21,11 / fast_pskip=1 / chroma_qp_offset=-2 / threads=24 / lookahead_threads=4 / sliced_threads=0 / nr=0 / decimate=1 / interlaced=0 / bluray_compat=0 / constrained_intra=0 / bframes=3 / b_pyramid=2 / b_adapt=1 / b_bias=0 / direct=1 / weightb=1 / open_gop=0 / weightp=2 / keyint=250 / keyint_min=25 / scenecut=0 / intra_refresh=0 / rc_lookahead=40 / rc=abr / mbtree=1 / bitrate=4100 / ratetol=1.0 / qcomp=0.60 / qpmin=0 / qpmax=69 / qpstep=4 / vbv_maxrate=4700 / vbv_bufsize=23500 / nal_hrd=none / filler=0 / ip_ratio=1.40 / aq=1:1.00
Codec configuration box : avcC

Audio
ID : 2
Format : AAC LC
Format/Info : Advanced Audio Codec Low Complexity
Codec ID : mp4a-40-2
Duration : 24 min 45 s
Bit rate mode : Constant
Bit rate : 128 kb/s
Channel(s) : 2 channels
Channel layout : L R
Sampling rate : 48.0 kHz
Frame rate : 46.875 FPS (1024 SPF)
Compression mode : Lossy
Stream size : 22.7 MiB (3%)
Default : Yes
Alternate group : 1



Релиз от: FortunaTV





21.06.2020 обновлено. Добавлена 11-я и 12-я серии. Сезон окончен.

   Похожие торренты   Торрент   Размер 
В этой теме нет новых непрочитанных сообщений. Слушатели / Listeners [01x01-10 из 12] (2020) WEBRip 1080p от FortunaTV | StudioBand

0 | 0

7.16 ГБ

В этой теме нет новых непрочитанных сообщений. Арте / Arte [S01] (2020) WEBRip 1080p от FortunaTV | StudioBand

18 | 6

8.39 ГБ

В этой теме нет новых непрочитанных сообщений. Волны, слушайте меня / Nami yo Kiitekure [S01] (2020) WEBRip 1080p от FortunaTV | StudioBand

26 | 3

8.6 ГБ

В этой теме нет новых непрочитанных сообщений. Госпожа Кагуя: в любви как на войне / Kaguya-sama wa Kokurasetai: Tensai-tach [02x01-11 из 12] (2020) WEBRip 1080p от FortunaTV | StudioBand

18 | 14

7.8 ГБ

В этой теме нет новых непрочитанных сообщений. Башня Бога / Kami no Tou / Tower of God [01x01-11 из 13] (2020) WEBRip 1080p от FortunaTV | Crunchyroll

0 | 0

14.97 ГБ

В этой теме нет новых непрочитанных сообщений. Грабитель / Plunderer [01x01-23 из 24] (2020) WEBRip 1080p | StudioBand

3 | 6

30.32 ГБ

В этой теме нет новых непрочитанных сообщений. Глейпнир / Gleipnir [01x01-11 из 13] (2020) WEBRip 1080p | StudioBand

4 | 2

6.69 ГБ




Вы не можете начинать темы
Вы не можете отвечать на сообщения
Вы не можете редактировать свои сообщения
Вы не можете удалять свои сообщения
Вы не можете добавлять вложения

Перейти:  
Контактная информация: rstracker[пёсик]yandex.ru
 Вход
ppkBB3cker v.2 © 2008-2014 @ PPK
[ Time : 0.024s | 18 Queries | GZIP : Off ]

cron